Sunday, April 10, 2011

Jerry Garcia - Outtakes, Jams & Alternates

Jerry Garcia - Outtakes, Jams & Alternates (2004)
│HDCD│2004 Rhino R2 78063-F│Scans│3%Rec│431mb│md5│Psych-Rock│
│EAC│Test&Copy│FLAC│Tracks Log ARip Cue│68:22│320mp3 181mb│

Tracks
01. Deal (alternate take)
02. Let's Spend the Night Together
       (alternate take)
03. Mississippi Moon (alternate take)
04. Lonesome Town (acoustic version)
05. Catfish John (alternate take)
06. I'll Take A Melody (alternate take)
07. My Sisters and Brothers
08. Hully Gully / Rockin' Pneumonia and
       the Boogie Woogie Flu (studio jam)
09. Streamlined Cannonball (studio jam)
10. Iko Iko (studio jam)
11. Hey Bo Diddley / Hide Away (studio jam)
12. Accidentally Like A Martyr

Disc 6 (F) of the 'All Good Things' box set.


All Good Things Review
Even among Deadheads, there's always been a sense that Jerry Garcia's studio albums have been somewhat ignored. Part of this ties back to the often repeated urban legend that the Grateful Dead were never as good in the studio as they were live - an argument that has some truth but tends to downplay the merits of the studio albums, which had their own distinct attributes. This also applies to Garcia's studio records, but as a whole they're more problematic than the Dead's catalog. Every one of them is more tied to the production of the time, sounding like artifacts from their year of release, and apart from 1978's Cats Under the Stars - his only collection of all-original material (counting a track by Donna Jean Godchaux) and rightly regarded by Garcia and fans as his best album - it's hard to escape the sense that the guitarist treated the Jerry Garcia Band as a way to relax and unwind from the confines of the Grateful Dead, particularly since it turned into a touring outfit after 1982's half-hearted Run for the Roses. For all these reasons, listening to the entirety of Rhino's exhaustive six-disc box set All Good Things: Jerry Garcia Studio Sessions can be a little exhausting. While there are undoubtedly highlights, each record apart from Cats is uneven, and the addition of wealth of previously unreleased material - his five albums nearly double their running time with bonus tracks, and there's a whole disc of "Outtakes, Jams and Alternates" - only highlights the flaws or attributes of an individual album, since the unheard material essentially offers more of the same of the proper album. That means the bonus cuts on Cats Under the Stars are uniformly good, the tracks on Compliments are pleasantly rambling and unfocused, Garcia is strong but heavy on alternate takes, Reflections undistinguished, and Run for the Roses bland; the bonus disc plays like these bonus tracks, with a few highlights, like a nice cover of Warren Zevon's "Accidentally Like a Martyr" standing out amid the alternate takes and winding jams. In other words, the previously unreleased material doesn't pack any revelations - which is the opposite of the bonus material on the Dead's similar complete studio box set, The Golden Road. They simply confirm existing opinions on these albums, which remain an uneven, yet occasionally endearing, body of work. Of course, that means that All Good Things is for the diehards, the ones who enjoy hearing every scrap of tape that Garcia played, fully aware of the erratic nature of his solo career and willing to purchase an expensive box set with that in mind. They will certainly be pleased with this lovingly produced set, which boasts excellent HDCD remastering, individual digipaks, and a detailed 128-page book that contains an introduction by Robert Hunter, an overview of Garcia's solo career, and individual notes for each album. While it's unlikely that anybody outside of those dedicated fans will find this of interest - Jerry's albums, when taken together, confirm both your best and worst feelings about his music - the Dead have always been a band that treated their devoted very well, and this is a box targeted at those very fans. If you know what you're getting into, you will not be disappointed by the quality of All Good Things. Stephen Thomas Erlewine

+ Log

---------------------------------------------------------------------------------------------------------------------------
AccuRip.cda.log

AccurateRip verification results: Jerry Garcia - Outtakes, Jams & Alternates

Track [ CRC ] Status
01 [84b06eda] (00/27) No matches
02 [f2dd6f34] (00/27) No matches
03 [40557b36] (00/27) No matches
04 [30a092bd] (00/27) No matches
05 [a466eb8a] (00/28) No matches
06 [e22220e5] (00/27) No matches
07 [e574a426] (00/27) No matches
08 [244d022e] (00/28) No matches
09 [6f84b1f8] (00/28) No matches
10 [1290dc70] (00/28) No matches
11 [dfd249c2] (00/28) No matches
12 [982f0355] (00/27) No matches
Offseted by 512:
01 [2e65bc14] (05/27) Accurately ripped as in pressing(s) #2
02 [2a8364d8] (05/27) Accurately ripped as in pressing(s) #2
03 [66b7f657] (05/27) Accurately ripped as in pressing(s) #2
04 [998d6f04] (05/27) Accurately ripped as in pressing(s) #2
05 [c3fcbf37] (05/28) Accurately ripped as in pressing(s) #2
06 [ff89ec91] (05/27) Accurately ripped as in pressing(s) #2
07 [e6c72af7] (05/27) Accurately ripped as in pressing(s) #2
08 [f2fa85a0] (05/28) Accurately ripped as in pressing(s) #2
09 [7fa5fb01] (05/28) Accurately ripped as in pressing(s) #2
10 [be30cb3c] (05/28) Accurately ripped as in pressing(s) #2
11 [3362f2d4] (05/28) Accurately ripped as in pressing(s) #2
12 [869b14a3] (05/27) Accurately ripped as in pressing(s) #2
Offseted by 1182:
01 [36c7d42e] (20/27) Accurately ripped as in pressing(s) #1
02 [1ca5fd36] (20/27) Accurately ripped as in pressing(s) #1
03 [5b899019] (20/27) Accurately ripped as in pressing(s) #1
04 [d5aa6f8d] (20/27) Accurately ripped as in pressing(s) #1
05 [a0049183] (21/28) Accurately ripped as in pressing(s) #1
06 [bb523c8b] (20/27) Accurately ripped as in pressing(s) #1
07 [fd8d1d9f] (20/27) Accurately ripped as in pressing(s) #1
08 [f380e4c7] (21/28) Accurately ripped as in pressing(s) #1
09 [ecbc55cb] (21/28) Accurately ripped as in pressing(s) #1
10 [971a8f4d] (21/28) Accurately ripped as in pressing(s) #1
11 [ff7bddaa] (21/28) Accurately ripped as in pressing(s) #1
12 [3e393d65] (20/27) Accurately ripped as in pressing(s) #1
Offseted by 1188:
01 [3fd110a2] (02/27) Accurately ripped as in pressing(s) #3
02 [1cdcae78] (02/27) Accurately ripped as in pressing(s) #3
03 [18cca56c] (02/27) Accurately ripped as in pressing(s) #3
04 [20470aa1] (02/27) Accurately ripped as in pressing(s) #3
05 [e242f6ec] (02/28) Accurately ripped as in pressing(s) #3
06 [7f776cea] (02/27) Accurately ripped as in pressing(s) #3
07 [bafedacd] (02/27) Accurately ripped as in pressing(s) #3
08 [9f7ce015] (02/28) Accurately ripped as in pressing(s) #3
09 [461ea149] (02/28) Accurately ripped as in pressing(s) #3
10 [1ba0026e] (02/28) Accurately ripped as in pressing(s) #3
11 [30b4efec] (02/28) Accurately ripped as in pressing(s) #3
12 [762a39c0] (02/27) Accurately ripped as in pressing(s) #3

Track [ CRC32 ] [W/O NULL]
01 [305EE9EF] [16110552]
02 [B8BBF6C3] [23E5CF40]
03 [976C4A51] [5186CC61]
04 [B2B817D0] [1381CCCC]
05 [2370F7A9] [99DC2480]
06 [2C18EE5A] [FF90852F]
07 [8B992E8E] [9EB33A88]
08 [5338675A] [0B88182E]
09 [EAC0F849] [B4D3790E]
10 [A04369C9] [627D27BF]
11 [F503D25D] [183EBD41]
12 [5D028801] [99CAF223]
---------------------------------------------------------------------------------------------------------------------------
Exact Audio Copy V1.0 beta 1 from 15. November 2010

EAC extraction logfile from 10. April 2011, 17:27

Jerry Garcia / Outtakes, Jams & Alternates

Used drive : SAMSUNG DVD-ROM SD-616T Adapter: 1 ID: 0

Read mode : Secure
Utilize accurate stream : Yes
Defeat audio cache : Yes
Make use of C2 pointers : No

Read offset correction : 1182
Overread into Lead-In and Lead-Out : No
Fill up missing offset samples with silence : Yes
Delete leading and trailing silent blocks : No
Null samples used in CRC calculations : Yes
Used interface : Native Win32 interface for Win NT & 2000
Gap handling : Appended to previous track

Used output format : User Defined Encoder
Selected bitrate : 1024 kBit/s
Quality : High
Add ID3 tag : No
Command line compressor : C:\Program Files\Exact Audio Copy\FLAC\FLAC.EXE
Additional command line options : -8 -V -T "ARTIST=%a" -T "TITLE=%t" -T "ALBUM=%g" -T "DATE=%y" -T "TRACKNUMBER=%n" -T "GENRE=%m" -T "COMMENT=%e" %j--picture="%i"%j %s -o %d

TOC of the extracted CD

Track | Start | Length | Start sector | End sector
---------------------------------------------------------
1 | 0:00.00 | 3:23.63 | 0 | 15287
2 | 3:23.63 | 3:17.25 | 15288 | 30087
3 | 6:41.13 | 2:46.71 | 30088 | 42608
4 | 9:28.09 | 4:57.02 | 42609 | 64885
5 | 14:25.11 | 6:18.12 | 64886 | 93247
6 | 20:43.23 | 8:15.62 | 93248 | 130434
7 | 28:59.10 | 7:08.71 | 130435 | 162605
8 | 36:08.06 | 6:52.17 | 162606 | 193522
9 | 43:00.23 | 7:31.22 | 193523 | 227369
10 | 50:31.45 | 4:17.57 | 227370 | 246701
11 | 54:49.27 | 8:26.28 | 246702 | 284679
12 | 63:15.55 | 5:03.58 | 284680 | 307462

Track 1

Filename F:\Share2\Jerry Garcia\Outtakes, Jams & Alternates\01. Deal (alternate take).wav

Pre-gap length 0:00:02.00

Peak level 97.9 %
Extraction speed 3.7 X
Track quality 100.0 %
Test CRC 899CF17E
Copy CRC 899CF17E
Accurately ripped (confidence 20) [36C7D42E]
Copy OK

Track 2

Filename F:\Share2\Jerry Garcia\Outtakes, Jams & Alternates\02. Let's Spend the Night Together (alternate take).wav

Pre-gap length 0:00:02.38

Peak level 98.8 %
Extraction speed 4.0 X
Track quality 100.0 %
Test CRC 12CE037D
Copy CRC 12CE037D
Accurately ripped (confidence 20) [1CA5FD36]
Copy OK

Track 3

Filename F:\Share2\Jerry Garcia\Outtakes, Jams & Alternates\03. Mississippi Moon (alternate take).wav

Pre-gap length 0:00:02.47

Peak level 97.0 %
Extraction speed 4.1 X
Track quality 100.0 %
Test CRC 605C13E4
Copy CRC 605C13E4
Accurately ripped (confidence 20) [5B899019]
Copy OK

Track 4

Filename F:\Share2\Jerry Garcia\Outtakes, Jams & Alternates\04. Lonesome Town (acoustic version).wav

Pre-gap length 0:00:01.60

Peak level 98.0 %
Extraction speed 4.8 X
Track quality 100.0 %
Test CRC 9EBF8C6D
Copy CRC 9EBF8C6D
Accurately ripped (confidence 20) [D5AA6F8D]
Copy OK

Track 5

Filename F:\Share2\Jerry Garcia\Outtakes, Jams & Alternates\05. Catfish John (alternate take).wav

Pre-gap length 0:00:02.26

Peak level 97.2 %
Extraction speed 5.4 X
Track quality 100.0 %
Test CRC 139D53F6
Copy CRC 139D53F6
Accurately ripped (confidence 21) [A0049183]
Copy OK

Track 6

Filename F:\Share2\Jerry Garcia\Outtakes, Jams & Alternates\06. I'll Take A Melody (alternate take).wav

Pre-gap length 0:00:02.26

Peak level 97.6 %
Extraction speed 6.0 X
Track quality 100.0 %
Test CRC E5798611
Copy CRC E5798611
Accurately ripped (confidence 20) [BB523C8B]
Copy OK

Track 7

Filename F:\Share2\Jerry Garcia\Outtakes, Jams & Alternates\07. My Sisters and Brothers.wav

Pre-gap length 0:00:02.27

Peak level 97.6 %
Extraction speed 6.5 X
Track quality 100.0 %
Test CRC 4DCF4B96
Copy CRC 4DCF4B96
Accurately ripped (confidence 20) [FD8D1D9F]
Copy OK

Track 8

Filename F:\Share2\Jerry Garcia\Outtakes, Jams & Alternates\08. Hully Gully - Rockin' Pneumonia and the Boogie Woogie Flu (studio jam).wav

Pre-gap length 0:00:03.31

Peak level 98.0 %
Extraction speed 6.8 X
Track quality 100.0 %
Test CRC F31DD9F5
Copy CRC F31DD9F5
Accurately ripped (confidence 21) [F380E4C7]
Copy OK

Track 9

Filename F:\Share2\Jerry Garcia\Outtakes, Jams & Alternates\09. Streamlined Cannonball (studio jam).wav

Pre-gap length 0:00:03.42

Peak level 97.0 %
Extraction speed 6.8 X
Track quality 99.9 %
Test CRC 1DFEF2AE
Copy CRC 1DFEF2AE
Accurately ripped (confidence 21) [ECBC55CB]
Copy OK

Track 10

Filename F:\Share2\Jerry Garcia\Outtakes, Jams & Alternates\10. Iko Iko (studio jam).wav

Pre-gap length 0:00:02.03

Peak level 98.8 %
Extraction speed 7.2 X
Track quality 100.0 %
Test CRC 1349A2C8
Copy CRC 1349A2C8
Accurately ripped (confidence 21) [971A8F4D]
Copy OK

Track 11

Filename F:\Share2\Jerry Garcia\Outtakes, Jams & Alternates\11. Hey Bo Diddley - Hide Away (studio jam).wav

Pre-gap length 0:00:01.08

Peak level 98.0 %
Extraction speed 7.5 X
Track quality 99.9 %
Test CRC F56735D0
Copy CRC F56735D0
Accurately ripped (confidence 21) [FF7BDDAA]
Copy OK

Track 12

Filename F:\Share2\Jerry Garcia\Outtakes, Jams & Alternates\12. Accidentally Like A Martyr.wav

Pre-gap length 0:00:03.58

Peak level 96.6 %
Extraction speed 8.0 X
Track quality 100.0 %
Test CRC A8E58A2D
Copy CRC A8E58A2D
Accurately ripped (confidence 20) [3E393D65]
Copy OK

All tracks accurately ripped

No errors occurred

End of status report

==== Log checksum BBC95CCC9588824A59F14E3CC5114327F6E4FF8F4919A2ADCA9C7FD0A40B82B0 ====
---------------------------------------------------------------------------------------------------------------------------
AccuRip.flac.log

[CUETools log; Date: 5/22/2012 12:47:20 PM; Version: 2.1.2a]
HDCD: peak extend: none, transient filter: some, gain: none
[CTDB TOCID: 0lsItTINZdPN2hqILtvyD6eYfHA-] found.
[ CTDBID ] Status
[05d4e9f4] (5/5) Accurately ripped
[AccurateRip ID: 001b72f2-010b8204-9710030c] found.
Track [ CRC ] Status
01 [36c7d42e] (21/36) Accurately ripped
02 [1ca5fd36] (21/36) Accurately ripped
03 [5b899019] (21/36) Accurately ripped
04 [d5aa6f8d] (21/35) Accurately ripped
05 [a0049183] (22/37) Accurately ripped
06 [bb523c8b] (21/36) Accurately ripped
07 [fd8d1d9f] (21/36) Accurately ripped
08 [f380e4c7] (22/37) Accurately ripped
09 [ecbc55cb] (22/36) Accurately ripped
10 [971a8f4d] (22/37) Accurately ripped
11 [ff7bddaa] (22/37) Accurately ripped
12 [3e393d65] (21/36) Accurately ripped
AccurateRip v2:
01 [863cdf1a] (05/36) Accurately ripped
02 [2624efe3] (05/36) Accurately ripped
03 [06d278c3] (05/36) Accurately ripped
04 [a601149a] (05/35) Accurately ripped
05 [58e903e0] (05/37) Accurately ripped
06 [314c427c] (05/36) Accurately ripped
07 [2f074349] (05/36) Accurately ripped
08 [e992a1a6] (05/37) Accurately ripped
09 [75399d45] (05/36) Accurately ripped
10 [cd74d07b] (05/37) Accurately ripped
11 [973298bf] (05/37) Accurately ripped
12 [74a1ca69] (05/36) Accurately ripped
Offsetted by -670:
01 [2e65bc14] (06/36) Accurately ripped
02 [2a8364d8] (06/36) Accurately ripped
03 [66b7f657] (06/36) Accurately ripped
04 [998d6f04] (06/35) Accurately ripped
05 [c3fcbf37] (06/37) Accurately ripped
06 [ff89ec91] (06/36) Accurately ripped
07 [e6c72af7] (06/36) Accurately ripped
08 [f2fa85a0] (06/37) Accurately ripped
09 [7fa5fb01] (06/36) Accurately ripped
10 [be30cb3c] (06/37) Accurately ripped
11 [3362f2d4] (06/37) Accurately ripped
12 [869b14a3] (06/36) Accurately ripped
Offsetted by 6:
01 [3fd110a2] (04/36) Accurately ripped
02 [1cdcae78] (04/36) Accurately ripped
03 [18cca56c] (04/36) Accurately ripped
04 [20470aa1] (03/35) Accurately ripped
05 [e242f6ec] (04/37) Accurately ripped
06 [7f776cea] (04/36) Accurately ripped
07 [bafedacd] (04/36) Accurately ripped
08 [9f7ce015] (04/37) Accurately ripped
09 [461ea149] (03/36) Accurately ripped
10 [1ba0026e] (04/37) Accurately ripped
11 [30b4efec] (04/37) Accurately ripped
12 [762a39c0] (04/36) Accurately ripped

Track Peak [ CRC32 ] [W/O NULL] [ LOG ]
-- 98.8 [A68EDC32] [AA21BB47]
01 97.9 [899CF17E] [E22E4E02] CRC32
02 98.8 [12CE037D] [3119E700] CRC32
03 97.0 [605C13E4] [D38444B1] CRC32
04 98.0 [9EBF8C6D] [CBB40A38] CRC32
05 97.2 [139D53F6] [7A7373E4] CRC32
06 97.6 [E5798611] [A51D5B0B] CRC32
07 97.6 [4DCF4B96] [715D400F] CRC32
08 98.0 [F31DD9F5] [EBE89383] CRC32
09 97.0 [1DFEF2AE] [B007FC41] CRC32
10 98.8 [1349A2C8] [0ED2E29C] CRC32
11 98.0 [F56735D0] [78AEBED0] CRC32
12 96.6 [A8E58A2D] [FC0F0CA8] CRC32
---------------------------------------------------------------------------------------------------------------------------

Links


______________________________________________________

No comments:

Post a Comment

Note: Only a member of this blog may post a comment.